Linkin Park - A Thousand Suns 2010 Full Albüm

Linkin Park - A Thousand Suns (2010) Special Edition

CD | EAC | FLAC (image,cue,log) -> 299 Mb | MP3 @ 320 -> 110 Mb | covers 600 dpi -> 99 Mb
DVD-5 | NTSC 16:9 (720x480) VBR | English (LCPM, 2 ch) | 0:29:46 | 1.9 Gb

'A Thousand Suns' is the fourth studio album from American nu-metallers Linkin Park, who's trademark sound of mixing Chester Bennington's emotive raspy vocals with Mike Shinoda's rapping style to a backdrop of distorted guitar and electronic lines has won them millions of fans globally. Co-producedby Shinoda and Rick Rubin (Beastie Boys, Metallica), 'A Thousand Suns' features the driving electronic sound of single 'The Catalyst', while this special edition also comes complete with a making-of DVD.

Track Listings
01. The Requiem
02. The Radiance
03. Burning In The Skies
04. Empty Spaces
05. When They Come For Me
06. Robot Boy
07. Jornada Del Muerto
08. Waiting For The End
09. Blackout
10. Wretches And Kings
11. Wisdom, Justice, And Love
12. Iridescent
13. Fallout
14. The Catalyst
15. The Messenger

eac log
Exact Audio Copy V0.99 prebeta 5 from 4. May 2009

EAC extraction logfile from 10. September 2010, 20:07

Linkin Park / A Thousand Suns

Used drive : SlimtypeBD E DS4E1S Adapter: 0 ID: 1

Read mode : Secure
Utilize accurate stream : Yes
Defeat audio cache : Yes
Make use of C2 pointers : No

Read offset correction : 6
Overread into Lead-In and Lead-Out : No
Fill up missing offset samples with silence : Yes
Delete leading and trailing silent blocks : No
Null samples used in CRC calculations : Yes
Used interface : Native Win32 interface for Win NT & 2000

Used output format : User Defined Encoder
Selected bitrate : 768 kBit/s
Quality : High
Add ID3 tag : No
Command line compressor : C:\Program Files (x86)\Exact Audio Copy\Flac\flac.exe
Additional command line options : -8 -V -T "DATE=%y" -T "GENRE=%m" %s


TOC of the extracted CD

Track | Start | Length | Start sector | End sector
---------------------------------------------------------
1 | 0:00.10 | 2:01.09 | 10 | 9093
2 | 2:01.19 | 0:57.60 | 9094 | 13428
3 | 2:59.04 | 4:13.12 | 13429 | 32415
4 | 7:12.16 | 0:18.25 | 32416 | 33790
5 | 7:30.41 | 4:55.45 | 33791 | 55960
6 | 12:26.11 | 4:28.74 | 55961 | 76134
7 | 16:55.10 | 1:34.68 | 76135 | 83252
8 | 18:30.03 | 3:51.51 | 83253 | 100628
9 | 22:21.54 | 4:39.34 | 100629 | 121587
10 | 27:01.13 | 4:15.22 | 121588 | 140734
11 | 31:16.35 | 1:38.58 | 140735 | 148142
12 | 32:55.18 | 4:56.42 | 148143 | 170384
13 | 37:51.60 | 1:23.04 | 170385 | 176613
14 | 39:14.64 | 5:39.64 | 176614 | 202102
15 | 44:54.53 | 3:01.67 | 202103 | 215744


Range status and errors

Selected range

Filename C:\Rip's\Linkin Park - A Thousand Suns 2010 [Lossless]\Linkin Park - A Thousand Suns.wav

Peak level 100.0 %
Range quality 100.0 %
Test CRC 5FB9C465
Copy CRC 5FB9C465
Copy OK

No errors occurred


AccurateRip summary

Track 1 not present in database
Track 2 not present in database
Track 3 not present in database
Track 4 not present in database
Track 5 not present in database
Track 6 not present in database
Track 7 not present in database
Track 8 not present in database
Track 9 not present in database
Track 10 not present in database
Track 11 not present in database
Track 12 not present in database
Track 13 not present in database
Track 14 not present in database
Track 15 not present in database

None of the tracks are present in the AccurateRip database

End of status report







cover
filesonic

hotfile

fileserve

lossless

filesonic p.1
filesonic p.2

hotfile p.1
hotfile p.2

fileserve p.1
fileserve p.2

mp3

filesonic

hotfile

fileserve

DVD

filesonic links

hotfile links

fileserve links

Etiketler

Linkin Park - A Thousand Suns 2010 Full Albüm programının en son versiyonunu ve Linkin Park - A Thousand Suns 2010 Full Albüm programına ait crack, serial, pachları bulabilirsiniz. Bunun yanı sıra Linkin Park - A Thousand Suns 2010 Full Albüm ait altyazı veya türkçe dublaj içerikleri, mp4 formatında ya da DVDRip halinde çekilmiş görüntülerini bulabilirsiniz. Linkin Park - A Thousand Suns 2010 Full Albüm tam sürümdür ve sorunsuzca kurulabilmektedir. Dilerseniz Linkin Park - A Thousand Suns 2010 Full Albüm türkçe yama (pach) ile türkçe olarakta kullanabilirsiniz. Hepsi bir yana Linkin Park - A Thousand Suns 2010 Full Albüm'i hotfile, rapidshare, filesonic, uploading, fileserve, uploadstation, netload vb birçok download sitesine ait download linklerini bulabilirsiniz.

Yorumlar


Hiç yazılmış yorum bulunmamaktadır.

Yorum Ekle Lütfen site kuralları çerçevesinde yorumlarınızı ekleyiniz...



UYARI: Küfür, hakaret, rencide edici cümleler veya imalar, inançlara saldırı içeren, imla kuralları ile yazılmamış, Türkçe karakter kullanılmayan ve büyük harflerle yazılmış yorumlar onaylanmamaktadır.