Die Antwoord 2010

Die Antwoord 2010

Die Antwoord - SOS (2010)
X Lossless Decoder | FLAC+CUE+LOG | 350 Mb | Covers | 58:41
Genre: Rave, Hip hop

Die Antwoord (Afrikaans: "The Answer") is a hip-hop group from Cape Town, South Africa consisting of three members Ninja, Yo-Landi Vi$$er and DJ Hi-Tek. The band self-identifies as a melange of several diverse cultures.

Tracklist:

1 In Your Face 4.29
2 Enter The Ninja 5.04
3 Wat Kyk Jy? 4.35
4 Evil Boy (ft. Wanga) 4.33
5 Rich Bitch 3.30
6 Fish Paste 4.20
7 $copie 3.08
8 Beat Boy 8.18
9 She Makes Me a Killer 7.29
10 Doos Dronk (ft. Jack Parow and Fokofpolisiekar) 12.52

FILESONIK

Part 1
Part 2
Part 3
Part 4

FILESERVE

Part 1
Part 2
Part 3
Part 4
X Lossless Decoder version 20101010 (123.3)

XLD extraction logfile from 2010-10-10 21:17:16 -0400

Die Antwoord / $O$

Used drive : HL-DT-ST DVD-RW GWA-4082B (revision C039)

Use cdparanoia mode : YES (CDParanoia III 10.2 engine)
Disable audio cache : OK for the drive with cache less than 2750KB
Make use of C2 pointers : NO
Read offset correction : 667
Max retry count : 100
Gap status : Analyzed, Appended (except HTOA)

TOC of the extracted CD
Track | Start | Length | Start sector | End sector
---------------------------------------------------------
1 | 00:00:00 | 04:30:74 | 0 | 20323
2 | 04:30:74 | 05:09:61 | 20324 | 43559
3 | 09:40:60 | 04:38:32 | 43560 | 64441
4 | 14:19:17 | 04:32:20 | 64442 | 84861
5 | 18:51:37 | 03:34:36 | 84862 | 100947
6 | 22:25:73 | 04:19:50 | 100948 | 120422
7 | 26:45:48 | 03:14:34 | 120423 | 135006
8 | 30:00:07 | 08:22:14 | 135007 | 172670
9 | 38:22:21 | 07:31:21 | 172671 | 206516
10 | 45:53:42 | 12:52:10 | 206517 | 264426

All Tracks
Album gain : -8.82 dB
Peak : 1.000000

Track 01
Filename : /Work Folder/Die Antwoord - $O$/01 - In Your Face.flac
/Work Folder/Die Antwoord - $O$/01 - In Your Face.mp3
Pre-gap length : 00:02:00

Track gain : -10.42 dB
Peak : 0.994293
CRC32 hash (test run) : 78CA2DF4
CRC32 hash : 78CA2DF4
CRC32 hash (skip zero) : 73B7824A
AccurateRip signature : 0477D37B
->Track not present in AccurateRip database.
Statistics
Read error : 0
Skipped (treated as error) : 0
Edge jitter error (maybe fixed) : 0
Atom jitter error (maybe fixed) : 0
Drift error (maybe fixed) : 0
Dropped bytes error (maybe fixed) : 0
Duplicated bytes error (maybe fixed) : 0
Inconsistency in error sectors : 0

Track 02
Filename : /Work Folder/Die Antwoord - $O$/02 - Enter The Ninja.flac
/Work Folder/Die Antwoord - $O$/02 - Enter The Ninja.mp3

Track gain : -8.56 dB
Peak : 1.000000
CRC32 hash (test run) : AE3E436C
CRC32 hash : AE3E436C
CRC32 hash (skip zero) : 1475DE5A
AccurateRip signature : 449617EE
->Track not present in AccurateRip database.
Statistics
Read error : 0
Skipped (treated as error) : 0
Edge jitter error (maybe fixed) : 0
Atom jitter error (maybe fixed) : 0
Drift error (maybe fixed) : 0
Dropped bytes error (maybe fixed) : 0
Duplicated bytes error (maybe fixed) : 0
Inconsistency in error sectors : 0

Track 03
Filename : /Work Folder/Die Antwoord - $O$/03 - Wat Kyk Jy?.flac
/Work Folder/Die Antwoord - $O$/03 - Wat Kyk Jy?.mp3

Track gain : -9.66 dB
Peak : 0.994110
CRC32 hash (test run) : 048B605F
CRC32 hash : 048B605F
CRC32 hash (skip zero) : 459D3780
AccurateRip signature : D4ACA718
->Track not present in AccurateRip database.
Statistics
Read error : 0
Skipped (treated as error) : 0
Edge jitter error (maybe fixed) : 0
Atom jitter error (maybe fixed) : 0
Drift error (maybe fixed) : 0
Dropped bytes error (maybe fixed) : 0
Duplicated bytes error (maybe fixed) : 0
Inconsistency in error sectors : 0

Track 04
Filename : /Work Folder/Die Antwoord - $O$/04 - Evil Boy.flac
/Work Folder/Die Antwoord - $O$/04 - Evil Boy.mp3

Track gain : -9.53 dB
Peak : 0.993225
CRC32 hash (test run) : EB0B93F5
CRC32 hash : EB0B93F5
CRC32 hash (skip zero) : 0C247597
AccurateRip signature : 53C1DEA3
->Track not present in AccurateRip database.
Statistics
Read error : 0
Skipped (treated as error) : 0
Edge jitter error (maybe fixed) : 0
Atom jitter error (maybe fixed) : 0
Drift error (maybe fixed) : 0
Dropped bytes error (maybe fixed) : 0
Duplicated bytes error (maybe fixed) : 0
Inconsistency in error sectors : 0

Track 05
Filename : /Work Folder/Die Antwoord - $O$/05 - Rich Bitch.flac
/Work Folder/Die Antwoord - $O$/05 - Rich Bitch.mp3

Track gain : -9.03 dB
Peak : 0.989594
CRC32 hash (test run) : 8DC0D4AF
CRC32 hash : 8DC0D4AF
CRC32 hash (skip zero) : 29695DD0
AccurateRip signature : 2915D67D
->Track not present in AccurateRip database.
Statistics
Read error : 0
Skipped (treated as error) : 0
Edge jitter error (maybe fixed) : 0
Atom jitter error (maybe fixed) : 0
Drift error (maybe fixed) : 0
Dropped bytes error (maybe fixed) : 0
Duplicated bytes error (maybe fixed) : 0
Inconsistency in error sectors : 0

Track 06
Filename : /Work Folder/Die Antwoord - $O$/06 - Fish Paste.flac
/Work Folder/Die Antwoord - $O$/06 - Fish Paste.mp3

Track gain : -8.41 dB
Peak : 0.994507
CRC32 hash (test run) : 575B6F11
CRC32 hash : 575B6F11
CRC32 hash (skip zero) : 977C9890
AccurateRip signature : 5DE56F64
->Track not present in AccurateRip database.
Statistics
Read error : 0
Skipped (treated as error) : 0
Edge jitter error (maybe fixed) : 0
Atom jitter error (maybe fixed) : 0
Drift error (maybe fixed) : 0
Dropped bytes error (maybe fixed) : 0
Duplicated bytes error (maybe fixed) : 0
Inconsistency in error sectors : 0

Track 07
Filename : /Work Folder/Die Antwoord - $O$/07 - $copie.flac
/Work Folder/Die Antwoord - $O$/07 - $copie.mp3

Track gain : -6.14 dB
Peak : 0.999298
CRC32 hash (test run) : 877BB41A
CRC32 hash : 877BB41A
CRC32 hash (skip zero) : 521A04EC
AccurateRip signature : DB42EE25
->Track not present in AccurateRip database.
Statistics
Read error : 0
Skipped (treated as error) : 0
Edge jitter error (maybe fixed) : 0
Atom jitter error (maybe fixed) : 0
Drift error (maybe fixed) : 0
Dropped bytes error (maybe fixed) : 0
Duplicated bytes error (maybe fixed) : 0
Inconsistency in error sectors : 0

Track 08
Filename : /Work Folder/Die Antwoord - $O$/08 - Beat Boy.flac
/Work Folder/Die Antwoord - $O$/08 - Beat Boy.mp3

Track gain : -4.71 dB
Peak : 0.993195
CRC32 hash (test run) : 8D228414
CRC32 hash : 8D228414
CRC32 hash (skip zero) : 562F3198
AccurateRip signature : 033CA7E0
->Track not present in AccurateRip database.
Statistics
Read error : 0
Skipped (treated as error) : 0
Edge jitter error (maybe fixed) : 0
Atom jitter error (maybe fixed) : 0
Drift error (maybe fixed) : 0
Dropped bytes error (maybe fixed) : 0
Duplicated bytes error (maybe fixed) : 0
Inconsistency in error sectors : 0

Track 09
Filename : /Work Folder/Die Antwoord - $O$/09 - She Makes Me a Killer.flac
/Work Folder/Die Antwoord - $O$/09 - She Makes Me a Killer.mp3

Track gain : -8.81 dB
Peak : 1.000000
CRC32 hash (test run) : 1CB55407
CRC32 hash : 1CB55407
CRC32 hash (skip zero) : F14335BF
AccurateRip signature : AB8DC32A
->Track not present in AccurateRip database.
Statistics
Read error : 0
Skipped (treated as error) : 0
Edge jitter error (maybe fixed) : 0
Atom jitter error (maybe fixed) : 0
Drift error (maybe fixed) : 0
Dropped bytes error (maybe fixed) : 0
Duplicated bytes error (maybe fixed) : 0
Inconsistency in error sectors : 0

Track 10
Filename : /Work Folder/Die Antwoord - $O$/10 - Doos Dronk.flac
/Work Folder/Die Antwoord - $O$/10 - Doos Dronk.mp3

Track gain : -8.39 dB
Peak : 0.994141
CRC32 hash (test run) : B5768F59
CRC32 hash : B5768F59
CRC32 hash (skip zero) : 0B5B82BD
AccurateRip signature : F2CDF53F
->Track not present in AccurateRip database.
Statistics
Read error : 0
Skipped (treated as error) : 0
Edge jitter error (maybe fixed) : 0
Atom jitter error (maybe fixed) : 0
Drift error (maybe fixed) : 0
Dropped bytes error (maybe fixed) : 0
Duplicated bytes error (maybe fixed) : 0
Inconsistency in error sectors : 0

No errors occurred

End of status report

Etiketler

Die Antwoord 2010 programının en son versiyonunu ve Die Antwoord 2010 programına ait crack, serial, pachları bulabilirsiniz. Bunun yanı sıra Die Antwoord 2010 ait altyazı veya türkçe dublaj içerikleri, mp4 formatında ya da DVDRip halinde çekilmiş görüntülerini bulabilirsiniz. Die Antwoord 2010 tam sürümdür ve sorunsuzca kurulabilmektedir. Dilerseniz Die Antwoord 2010 türkçe yama (pach) ile türkçe olarakta kullanabilirsiniz. Hepsi bir yana Die Antwoord 2010'i hotfile, rapidshare, filesonic, uploading, fileserve, uploadstation, netload vb birçok download sitesine ait download linklerini bulabilirsiniz.

Yorumlar


Hiç yazılmış yorum bulunmamaktadır.

Yorum Ekle Lütfen site kuralları çerçevesinde yorumlarınızı ekleyiniz...



UYARI: Küfür, hakaret, rencide edici cümleler veya imalar, inançlara saldırı içeren, imla kuralları ile yazılmamış, Türkçe karakter kullanılmayan ve büyük harflerle yazılmış yorumlar onaylanmamaktadır.